.
Авторизация | Регистрация
Хочешь лучшие торренты? Добавь свой email!
Добавить

Торрент скачать бесплатно

  • support: webmaster@btracker.club
» » Udemy | Парсеры, роботы, автоматизация, Selenium, PhantomJS на PHP (2018) PCRec [H.264] торрент скачать бесплатно


    Udemy | Парсеры, роботы, автоматизация, Selenium, PhantomJS на PHP (2018) PCRec [H.264] торрент скачать бесплатно

    Опубликовал: fregat | Дата: 6-12-2018, 05:01 | .torrent скачали: 0

    Udemy | Парсеры, роботы, автоматизация, Selenium, PhantomJS на PHP (2018) PCRec [H.264]Автор (режиссер): PHP Academy
    Производство: Udemy
    Жанр: Программирование, PHP

    Описание

    Этот курс сделает вас профессиональным разработчиком парсеров, роботов, скриптов автоматизации. Вы сможете парсить сайты любой сложности, работать с Selenium Webdriver, писать роботы, и создать платформу уровня UNI Delivery.
    Продолжительность: 03: 13: 02
    Качество видео: PCRec
    Видео: AVC/H.264, 640x360-1280x720, ~576-2444 Kbps
    Аудио: AAC, 2 ch, 125-128 Kbps

    Общее
    Полное имя : . PhantomJS и PHP. Парсим сайты Парсим Zappos.com. Часть 5 Получаем ссылки на все товары со страницы каталога.mp4
    Формат : MPEG-4
    Профиль формата : Base Media
    Идентификатор кодека : isom (isom/iso2/avc1/mp41)
    Размер файла : 47, 4 Мбайт
    Продолжительность : 8 м. 43 с.
    Общий поток : 760 Кбит/сек
    Программа кодирования : Lavf57.56.100
    Видео
    Идентификатор : 1
    Формат : AVC
    Формат/Информация : Advanced Video Codec
    Профиль формата : Main@L3
    Настройки формата : CABAC/4 Ref Frames
    Параметр CABAC формата : Да
    Параметр RefFrames формата : 4 кадра
    Идентификатор кодека : avc1
    Идентификатор кодека/Информация : Advanced Video Coding
    Продолжительность : 8 м. 43 с.
    Битрейт : 626 Кбит/сек
    Номинальный битрейт : 700 Кбит/сек
    Ширина : 640 пикселей
    Высота : 360 пикселей
    Соотношение сторон : 16: 9
    Режим частоты кадров : Постоянный
    Частота кадров : 30, 000 кадров/сек
    Цветовое пространство : YUV
    Субдискретизация насыщенности : 4: 2: 0
    Битовая глубина : 8 бит
    Тип развёртки : Прогрессивная
    Бит/(Пиксели*Кадры) : 0.091
    Размер потока : 39, 1 Мбайт (82%)
    Библиотека кодирования : x264 core 148
    Настройки программы : cabac=1/ref=3/deblock=1: -1: -1/analyse=0x1: 0x111/me=umh/subme=6/psy=1/psy_rd=1.00: 0.15/mixed_ref=1/me_range=16/chroma_me=1/trellis=1/8x8dct=0/cqm=0/deadzone=21, 11/fast_pskip=1/chroma_qp_offset=-3/threads=11/lookahead_threads=1/sliced_threads=0/nr=0/decimate=1/interlaced=0/bluray_compat=0/constrained_intra=0/bframes=3/b_pyramid=2/b_adapt=1/b_bias=0/direct=1/weightb=1/open_gop=0/weightp=2/keyint=60/keyint_min=6/scenecut=0/intra_refresh=0/rc_lookahead=60/rc=cbr/mbtree=1/bitrate=700/ratetol=1.0/qcomp=0.60/qpmin=0/qpmax=69/qpstep=4/vbv_maxrate=700/vbv_bufsize=1400/nal_hrd=none/filler=0/ip_ratio=1.40/aq=1: 1.00
    Codec configuration box : avcC
    Аудио
    Идентификатор : 2
    Формат : AAC LC
    Формат/Информация : Advanced Audio Codec Low Complexity
    Идентификатор кодека : mp4a-40-2
    Продолжительность : 8 м. 43 с.
    Вид битрейта : Постоянный
    Битрейт : 126 Кбит/сек
    Каналы : 2 канала
    Channel layout : L R
    Частота : 44, 1 КГц
    Частота кадров : 43, 066 кадра/сек (1024 SPF)
    Метод сжатия : С потерями
    Размер потока : 7, 83 Мбайт (17%)
    Default : Да
    AlternateGroup/String : 1
    Общее
    Полное имя : . PhantomJS и PHP. Парсим сайты Знакомимся с PhantomJS. Командная строка. Скриншоты сайтов. Исходный код сайта.mp4
    Формат : MPEG-4
    Профиль формата : Base Media
    Идентификатор кодека : isom (isom/iso2/avc1/mp41)
    Размер файла : 116 Мбайт
    Продолжительность : 16 м. 20 с.
    Общий поток : 993 Кбит/сек
    Программа кодирования : Lavf57.56.100
    Видео
    Идентификатор : 1
    Формат : AVC
    Формат/Информация : Advanced Video Codec
    Профиль формата : Main@L3.1
    Настройки формата : CABAC/4 Ref Frames
    Параметр CABAC формата : Да
    Параметр RefFrames формата : 4 кадра
    Параметр GOP формата : M=4, N=60
    Идентификатор кодека : avc1
    Идентификатор кодека/Информация : Advanced Video Coding
    Продолжительность : 16 м. 20 с.
    Битрейт : 858 Кбит/сек
    Номинальный битрейт : 1400 Кбит/сек
    Ширина : 854 пикселя
    Высота : 480 пикселей
    Соотношение сторон : 16: 9
    Соотношение сторон в оригинале : 16: 9
    Режим частоты кадров : Постоянный
    Частота кадров : 30, 000 кадров/сек
    Цветовое пространство : YUV
    Субдискретизация насыщенности : 4: 2: 0
    Битовая глубина : 8 бит
    Тип развёртки : Прогрессивная
    Бит/(Пиксели*Кадры) : 0.070
    Размер потока : 100 Мбайт (86%)
    Библиотека кодирования : x264 core 148
    Настройки программы : cabac=1/ref=3/deblock=1: -1: -1/analyse=0x1: 0x111/me=umh/subme=6/psy=1/psy_rd=1.00: 0.15/mixed_ref=1/me_range=16/chroma_me=1/trellis=1/8x8dct=0/cqm=0/deadzone=21, 11/fast_pskip=1/chroma_qp_offset=-3/threads=15/lookahead_threads=2/sliced_threads=0/nr=0/decimate=1/interlaced=0/bluray_compat=0/constrained_intra=0/bframes=3/b_pyramid=2/b_adapt=1/b_bias=0/direct=1/weightb=1/open_gop=0/weightp=2/keyint=60/keyint_min=6/scenecut=0/intra_refresh=0/rc_lookahead=60/rc=cbr/mbtree=1/bitrate=1400/ratetol=1.0/qcomp=0.60/qpmin=0/qpmax=69/qpstep=4/vbv_maxrate=1400/vbv_bufsize=2800/nal_hrd=none/filler=0/ip_ratio=1.40/aq=1: 1.00
    Codec configuration box : avcC
    Аудио
    Идентификатор : 2
    Формат : AAC LC
    Формат/Информация : Advanced Audio Codec Low Complexity
    Идентификатор кодека : mp4a-40-2
    Продолжительность : 16 м. 20 с.
    Вид битрейта : Постоянный
    Битрейт : 126 Кбит/сек
    Каналы : 2 канала
    Channel layout : L R
    Частота : 44, 1 КГц
    Частота кадров : 43, 066 кадра/сек (1024 SPF)
    Метод сжатия : С потерями
    Размер потока : 14, 7 Мбайт (13%)
    Default : Да
    AlternateGroup/String : 1
    Общее
    Полное имя : . PhantomJS и PHP. Парсим сайты Парсим Zappos.com. Часть 6 пишем ссылки на все товары категории в JSON файл.mp4
    Формат : MPEG-4
    Профиль формата : Base Media
    Идентификатор кодека : isom (isom/iso2/avc1/mp41)
    Размер файла : 127 Мбайт
    Продолжительность : 7 м. 49 с.
    Общий поток : 2266 Кбит/сек
    Программа кодирования : Lavf57.56.100
    Видео
    Идентификатор : 1
    Формат : AVC
    Формат/Информация : Advanced Video Codec
    Профиль формата : Main@L3.1
    Настройки формата : CABAC/4 Ref Frames
    Параметр CABAC формата : Да
    Параметр RefFrames формата : 4 кадра
    Идентификатор кодека : avc1
    Идентификатор кодека/Информация : Advanced Video Coding
    Продолжительность : 7 м. 49 с.
    Битрейт : 2132 Кбит/сек
    Номинальный битрейт : 3000 Кбит/сек
    Ширина : 1280 пикселей
    Высота : 720 пикселей
    Соотношение сторон : 16: 9
    Режим частоты кадров : Постоянный
    Частота кадров : 30, 000 кадров/сек
    Цветовое пространство : YUV
    Субдискретизация насыщенности : 4: 2: 0
    Битовая глубина : 8 бит
    Тип развёртки : Прогрессивная
    Бит/(Пиксели*Кадры) : 0.077
    Размер потока : 119 Мбайт (94%)
    Библиотека кодирования : x264 core 148
    Настройки программы : cabac=1/ref=3/deblock=1: -1: -1/analyse=0x1: 0x111/me=umh/subme=6/psy=1/psy_rd=1.00: 0.15/mixed_ref=1/me_range=16/chroma_me=1/trellis=1/8x8dct=0/cqm=0/deadzone=21, 11/fast_pskip=1/chroma_qp_offset=-3/threads=22/lookahead_threads=3/sliced_threads=0/nr=0/decimate=1/interlaced=0/bluray_compat=0/constrained_intra=0/bframes=3/b_pyramid=2/b_adapt=1/b_bias=0/direct=1/weightb=1/open_gop=0/weightp=2/keyint=60/keyint_min=6/scenecut=0/intra_refresh=0/rc_lookahead=60/rc=cbr/mbtree=1/bitrate=3000/ratetol=1.0/qcomp=0.60/qpmin=0/qpmax=69/qpstep=4/vbv_maxrate=3000/vbv_bufsize=6000/nal_hrd=none/filler=0/ip_ratio=1.40/aq=1: 1.00
    Codec configuration box : avcC
    Аудио
    Идентификатор : 2
    Формат : AAC LC
    Формат/Информация : Advanced Audio Codec Low Complexity
    Идентификатор кодека : mp4a-40-2
    Продолжительность : 7 м. 49 с.
    Вид битрейта : Постоянный
    Битрейт : 126 Кбит/сек
    Каналы : 2 канала
    Channel layout : L R
    Частота : 44, 1 КГц
    Частота кадров : 43, 066 кадра/сек (1024 SPF)
    Метод сжатия : С потерями
    Размер потока : 7, 02 Мбайт (6%)
    Default : Да
    AlternateGroup/String : 1
    Скриншоты:


    Время раздачи: 24/7 (круглосуточно) (до появления первых 3-5 скачавших)


    Udemy | Парсеры, роботы, автоматизация, Selenium, PhantomJS на PHP (2018) PCRec [H.264]
    Рейтинг →
     (голосов: 1, оценка 5/5, голосовать можно 1 раз )

    Другие торренты по теме:

  • Udemy | Изучение взлома Wi-fi паролей / ключей (WEP / WPA / WPA2) / Learn Cracking Wi-fi Passwords / Keys (WEP / WPA / WPA2) (2015) PCRec [EN]
  • Udemy | Certified Metasploit Framework Professional (2014) PCRec [EN] скачать через торрент бесплатно
  • Udemy.com | Создание сайта с нуля с помощью HTML и CSS / Build Websites from Scratch with HTML & CSS (2014) PCRec [H.264 / 720p] [EN] скачать через торрент бесплатно
  • Udemy.com | Станьте web-разработчиком с нуля / Become a Web Developer from Scratch (2015) PCRec [H.264 / 720p] [EN] скачать через торрент бесплатно
  • Udemy.com | Infinite Skills | Написание безопасного PHP-кода. Уроки о защите. | Writing Secure PHP Code - PHP Security Tutorial (2014) PCRec [H.264 / 720p] [EN] скачать через торрент бесплатно
  • Udemy.com | Hacking School & IT Security Academy | Практический взлом сайтов | Website Hacking in Practice (2014) PCRec [H.264 / 720p] [EN] скачать через торрент бесплатно
  • Udemy | Kickstart ur Network Security Career: Checkpoint CCSA Course (2015) PCRec [H.264 / 720p] [EN] скачать через торрент бесплатно
  • Udemy | Brad Hussey | Bootstrap to WordPress. Theme Development (2014) [H.264 / 720p] [EN]


    • Комментарии (0):

      Информация

      Информация

        Посетители, находящиеся в группе Гости, не могут оставлять комментарии в данной новости.

        ↓ Меню




        ↓ Опрос

        Вы добавили сайт в закладки?
        Да
        Нет


        Top 10 за месяц (Книги)