.
Авторизация | Регистрация
Хочешь лучшие торренты? Добавь свой email!
Добавить

Торрент скачать бесплатно

  • support: webmaster@btracker.club
» » Webcademy | Gulp Сборка (2018) PCRec [H.264] торрент скачать бесплатно


    Webcademy | Gulp Сборка (2018) PCRec [H.264] торрент скачать бесплатно

    Опубликовал: fregat | Дата: 6-12-2018, 05:01 | .torrent скачали: 0

    Webcademy | Gulp Сборка (2018) PCRec [H.264]Автор (режиссер): Юриий Ключевский
    Производство: Webcademy
    Жанр: Программирование

    Описание

    Как вам идея зарабатывать больше, ускорив свой рабочий процесс, за счет внедрения новых инструментов? Все еще используете HTML + CSS? Переходи на красную сторону силы! У нас есть Gulp - Автообновление в браузере, LESS/SASS разложен по модулям, Нет дублированию кода, Компонентый подход.
    Продолжительность: 06: 14: 31
    Качество видео: PCRec
    Видео: AVC/H.264, 1280x720-1920x1080, ~720-4794 Kbps
    Аудио: AAC, 2 ch, 127-192 Kbps

    Общее
    Полное имя : .ответы на вопросы.mp4
    Формат : MPEG-4
    Профиль формата : Base Media/Version 2
    Идентификатор кодека : mp42 (isom/mp42)
    Размер файла : 370 Мбайт
    Продолжительность : 1 ч. 0 м.
    Режим общего битрейта : Переменный
    Общий поток : 851 Кбит/сек
    Дата кодирования : UTC 2018-04-26 15: 03: 35
    Дата пометки : UTC 2018-04-26 15: 03: 35
    gsst : 0
    gstd : 3649225
    Видео
    Идентификатор : 1
    Формат : AVC
    Формат/Информация : Advanced Video Codec
    Профиль формата : High@L3.1
    Настройки формата : CABAC/1 Ref Frames
    Параметр CABAC формата : Да
    Параметр RefFrames формата : 1 кадр
    Идентификатор кодека : avc1
    Идентификатор кодека/Информация : Advanced Video Coding
    Продолжительность : 1 ч. 0 м.
    Битрейт : 721 Кбит/сек
    Ширина : 1280 пикселей
    Высота : 720 пикселей
    Соотношение сторон : 16: 9
    Режим частоты кадров : Постоянный
    Частота кадров : 10, 000 кадров/сек
    Цветовое пространство : YUV
    Субдискретизация насыщенности : 4: 2: 0
    Битовая глубина : 8 бит
    Тип развёртки : Прогрессивная
    Бит/(Пиксели*Кадры) : 0.078
    Размер потока : 313 Мбайт (85%)
    Заголовок : ISO Media file produced by Google Inc. Created on: 04/26/2018.
    Дата кодирования : UTC 2018-04-26 15: 03: 35
    Дата пометки : UTC 2018-04-26 15: 03: 35
    Цветовой диапазон : Limited
    Основные цвета : BT.709
    Характеристики трансфера : BT.709
    Коэффициенты матрицы : BT.709
    Codec configuration box : avcC
    Аудио
    Идентификатор : 2
    Формат : AAC LC
    Формат/Информация : Advanced Audio Codec Low Complexity
    Идентификатор кодека : mp4a-40-2
    Продолжительность : 1 ч. 0 м.
    Вид битрейта : Переменный
    Битрейт : 128 Кбит/сек
    Каналы : 2 канала
    Channel layout : L R
    Частота : 44, 1 КГц
    Частота кадров : 43, 066 кадра/сек (1024 SPF)
    Метод сжатия : С потерями
    Размер потока : 55, 7 Мбайт (15%)
    Заголовок : ISO Media file produced by Google Inc. Created on: 04/26/2018.
    Дата кодирования : UTC 2018-04-26 15: 03: 35
    Дата пометки : UTC 2018-04-26 15: 03: 35
    Общее
    Полное имя : .День 1 - Знакомство с инструментами.mp4
    Формат : MPEG-4
    Профиль формата : Base Media
    Идентификатор кодека : isom (isom/iso2/avc1/mp41)
    Размер файла : 90, 7 Мбайт
    Продолжительность : 11 м. 4 с.
    Общий поток : 1145 Кбит/сек
    Программа кодирования : Lavf57.83.100
    Видео
    Идентификатор : 1
    Формат : AVC
    Формат/Информация : Advanced Video Codec
    Профиль формата : High@L4
    Настройки формата : CABAC/4 Ref Frames
    Параметр CABAC формата : Да
    Параметр RefFrames формата : 4 кадра
    Идентификатор кодека : avc1
    Идентификатор кодека/Информация : Advanced Video Coding
    Продолжительность : 11 м. 4 с.
    Битрейт : 944 Кбит/сек
    Номинальный битрейт : 4950 Кбит/сек
    Ширина : 1920 пикселей
    Высота : 1080 пикселей
    Соотношение сторон : 16: 9
    Режим частоты кадров : Постоянный
    Частота кадров : 30, 000 кадров/сек
    Цветовое пространство : YUV
    Субдискретизация насыщенности : 4: 2: 0
    Битовая глубина : 8 бит
    Тип развёртки : Прогрессивная
    Бит/(Пиксели*Кадры) : 0.015
    Размер потока : 74, 8 Мбайт (82%)
    Библиотека кодирования : x264 core 148
    Настройки программы : cabac=1/ref=2/deblock=1: 0: 0/analyse=0x3: 0x113/me=hex/subme=6/psy=1/psy_rd=1.00: 0.00/mixed_ref=1/me_range=16/chroma_me=1/trellis=1/8x8dct=1/cqm=0/deadzone=21, 11/fast_pskip=1/chroma_qp_offset=-2/threads=6/lookahead_threads=1/sliced_threads=0/nr=0/decimate=1/interlaced=0/bluray_compat=0/constrained_intra=0/bframes=3/b_pyramid=2/b_adapt=1/b_bias=0/direct=1/weightb=1/open_gop=0/weightp=1/keyint=250/keyint_min=25/scenecut=40/intra_refresh=0/rc_lookahead=30/rc=2pass/mbtree=1/bitrate=4950/ratetol=1.0/qcomp=0.60/qpmin=0/qpmax=69/qpstep=4/cplxblur=20.0/qblur=0.5/vbv_maxrate=4950/vbv_bufsize=9900/nal_hrd=none/filler=0/ip_ratio=1.40/aq=1: 1.00
    Codec configuration box : avcC
    Аудио
    Идентификатор : 2
    Формат : AAC LC
    Формат/Информация : Advanced Audio Codec Low Complexity
    Идентификатор кодека : mp4a-40-2
    Продолжительность : 11 м. 4 с.
    Вид битрейта : Постоянный
    Битрейт : 192 Кбит/сек
    Каналы : 2 канала
    Channel layout : L R
    Частота : 44, 1 КГц
    Частота кадров : 43, 066 кадра/сек (1024 SPF)
    Метод сжатия : С потерями
    Размер потока : 15, 2 Мбайт (17%)
    Default : Да
    AlternateGroup/String : 1


    Webcademy | Gulp Сборка (2018) PCRec [H.264]
    Рейтинг →
     (голосов: 1, оценка 3/5, голосовать можно 1 раз )

    Другие торренты по теме:



      Комментарии (0):

      Информация

      Информация

        Посетители, находящиеся в группе Гости, не могут оставлять комментарии в данной новости.

        ↓ Меню




        ↓ Опрос

        Вы добавили сайт в закладки?
        Да
        Нет


        Top 10 за месяц (Книги)