.
Авторизация | Регистрация
Хочешь лучшие торренты? Добавь свой email!
Добавить

Торрент скачать бесплатно

  • support: webmaster@btracker.club
» » Наталия Франкель, Дмитрий Румянцев | Суровый Питерский SMM. Эпизод IV (2018) HDTVRip [H.264 / 720p-LQ] торрент скачать бесплатно


    Наталия Франкель, Дмитрий Румянцев | Суровый Питерский SMM. Эпизод IV (2018) HDTVRip [H.264 / 720p-LQ] торрент скачать бесплатно

    Опубликовал: fregat | Дата: 8-11-2018, 05:00 | .torrent скачали: 0

    Наталия Франкель, Дмитрий Румянцев | Суровый Питерский SMM. Эпизод IV (2018) HDTVRip [H.264 / 720p-LQ]Автор (режиссер): Наталия Франкель, Дмитрий Румянцев
    Производство: Россия
    Жанр: СММ, SEO, Маркетинг

    Описание

    Спикеры-практики, которые оперируют не такими абстрактными понятиями, как лояльность, имидж, креатив и PR, а количеством обращений, стоимостью лидов, ценой посетителя на сайт и другими внятными KPI.
    Спикеры-практики, которые не устраивают из своих выступлений шоу, но зато доходчиво разъясняют, как увеличивать продажи с помощью соцсетей.
    Подробные часовые доклады, где, помимо теоретической части, обязательны кейсы по продвижению конкретного бизнеса из личной практики.
    Спикеры-практики, у которых есть свои сообщества-лидеры в нише или реальный бизнес, раскрученный с помощью социальных сетей.
    60 часов выступлений от топовых экспертов России.
    Все презентации экспертов в PDF-формате.
    Продолжительность: 58: 25: 51
    Качество видео: HDTVRip
    Видео: AVC/H.264, 1280х720, ~1591 Kbps
    Аудио: AAC, 2 ch, 137 Kbps

    бщее
    Полное имя : Day 1Stream 1Анна Тыщенко.mp4
    Формат : MPEG-4
    Профиль формата : Base Media/Version 2
    Идентификатор кодека : mp42 (mp42/mp41/isom/avc1)
    Размер файла : 698 Мбайт
    Продолжительность : 56 м. 17 с.
    Режим общего битрейта : Переменный
    Общий поток : 1733 Кбит/сек
    Дата кодирования : UTC 2018-10-25 23: 27: 40
    Дата пометки : UTC 2018-10-25 23: 27: 40
    Видео
    Идентификатор : 1
    Формат : AVC
    Формат/Информация : Advanced Video Codec
    Профиль формата : High@L3.2
    Параметр CABAC формата : Да
    Параметр ReFrames формата : 5 кадров
    Идентификатор кодека : avc1
    Идентификатор кодека/Информация : Advanced Video Coding
    Продолжительность : 56 м. 17 с.
    Битрейт : 1591 Кбит/сек
    Ширина : 1280 пикселей
    Высота : 720 пикселей
    Соотношение сторон : 16: 9
    Режим частоты кадров : Постоянный
    Частота кадров : 30, 000 кадров/сек
    Цветовое пространство : YUV
    Субдискретизация насыщенности : 4: 2: 0
    Битовая глубина : 8 бит
    Тип развёртки : Прогрессивная
    Бит/(Пиксели*Кадры) : 0.058
    Размер потока : 641 Мбайт (92%)
    Библиотека кодирования : x264 core 157 r7M 303c484
    Настройки программы : cabac=1/ref=5/deblock=1: 0: 0/analyse=0x3: 0x113/me=hex/subme=8/psy=1/psy_rd=1.00: 0.00/mixed_ref=1/me_range=16/chroma_me=1/trellis=2/8x8dct=1/cqm=0/deadzone=21, 11/fast_pskip=1/chroma_qp_offset=-2/threads=22/lookahead_threads=3/sliced_threads=0/nr=0/decimate=1/interlaced=0/bluray_compat=0/stitchable=1/constrained_intra=0/bframes=3/b_pyramid=2/b_adapt=2/b_bias=0/direct=3/weightb=1/open_gop=0/weightp=2/keyint=infinite/keyint_min=30/scenecut=40/intra_refresh=0/rc_lookahead=50/rc=crf/mbtree=1/crf=20.0/qcomp=0.60/qpmin=5/qpmax=69/qpstep=4/vbv_maxrate=2750/vbv_bufsize=7500/crf_max=0.0/nal_hrd=none/filler=0/ip_ratio=1.40/aq=1: 1.00
    Дата кодирования : UTC 2018-10-25 23: 27: 40
    Дата пометки : UTC 2018-10-25 23: 27: 40
    Цветовой диапазон : Limited
    Основные цвета : BT.709
    Характеристики трансфера : BT.709
    Коэффициенты матрицы : BT.709
    Аудио
    Идентификатор : 2
    Формат : AAC
    Формат/Информация : Advanced Audio Codec
    Профиль формата : LC
    Идентификатор кодека : 40
    Продолжительность : 56 м. 17 с.
    Вид битрейта : Переменный
    Битрейт : 137 Кбит/сек
    Каналы : 2 канала
    Расположение каналов : Front: L R
    Частота : 48, 0 КГц
    Частота кадров : 46, 875 кадров/сек (1024 spf)
    Метод сжатия : С потерями
    Размер потока : 55, 2 Мбайт (8%)
    Дата кодирования : UTC 2018-10-25 23: 27: 40
    Дата пометки : UTC 2018-10-25 23: 27: 40


    Наталия Франкель, Дмитрий Румянцев | Суровый Питерский SMM. Эпизод IV (2018) HDTVRip [H.264/720p-LQ]
    Рейтинг →
     (голосов: 1, оценка 3/5, голосовать можно 1 раз )

    Другие торренты по теме:

  • Наталия Франкель, Дмитрий Румянцев | Event-маркетинг. Все об организации и продвижении событий (2017) [FB2]


    • Комментарии (0):

      Информация

      Информация

        Посетители, находящиеся в группе Гости, не могут оставлять комментарии в данной новости.

        ↓ Меню




        ↓ Опрос

        Вы добавили сайт в закладки?
        Да
        Нет


        Top 10 за месяц (Книги)