.
Авторизация | Регистрация
Хочешь лучшие торренты? Добавь свой email!
Добавить

Торрент скачать бесплатно

  • support: webmaster@btracker.club
» » Udemy.com | Python Web Programming (2015) PCRec [H.264 / 720p-LQ] [RU / EN] торрент скачать бесплатно


    Udemy.com | Python Web Programming (2015) PCRec [H.264 / 720p-LQ] [RU / EN] торрент скачать бесплатно

    Опубликовал: fregat | Дата: 16-07-2018, 05:00 | .torrent скачали: 1

    Udemy.com | Python Web Programming (2015) PCRec [H.264 / 720p-LQ] [RU / EN]Автор (режиссер): Harrison
    Производство: Udemy.com
    Жанр: Программирование

    Описание

    Web-программирование на Python.
    Python – это простой в освоении и мощный язык программирования. Он предоставляет эффективные высокоуровневые структуры данных, а также простой, но эффективный подход к объектно-ориентированному программированию. Его элегантный синтаксис и динамическая типизация наряду с тем, что он является интерпретируемым, делают его идеальным языком для написания сценариев и быстрой разработки приложений в различных областях и на большинстве платформ.
    Продолжительность: 06: 07: 47
    Качество видео: PCRec
    Перевод: Дублированный (Samigg)
    Язык озвучки: Русский, Английский
    Видео: AVC/H.264, 1280x720, ~165-3672 Kbps
    Аудио 1: AAC, 1 ch, 128 Kbps - Русский, дублированный (Samigg)
    Аудио 2: AAC, 2 ch, 56-83 Kbps - Английский, оригинал

    General
    Complete name : 01_00. Course Introduction.mp4
    Format : MPEG-4
    Format profile : Base Media
    Codec ID : isom
    File size : 97.5 MiB
    Duration : 4mn 24s
    Overall bit rate : 3 098 Kbps
    Video
    ID : 1
    Format : AVC
    Format/Info : Advanced Video Codec
    Format profile : Baseline@L3.1
    Format settings, CABAC : No
    Format settings, ReFrames : 3 frames
    Format settings, GOP : M=1, N=50
    Codec ID : avc1
    Codec ID/Info : Advanced Video Coding
    Duration : 4mn 23s
    Bit rate : 2 904 Kbps
    Width : 1 280 pixels
    Height : 720 pixels
    Display aspect ratio : 16: 9
    Frame rate mode : Constant
    Frame rate : 29.970 fps
    Color space : YUV
    Chroma subsampling : 4: 2: 0
    Bit depth : 8 bits
    Scan type : Progressive
    Bits/(Pixel*Frame) : 0.105
    Stream size : 91.3 MiB (94%)
    Writing library : Zencoder Video Encoding System
    Language : English
    Audio #1
    ID : 2
    Format : AAC
    Format/Info : Advanced Audio Codec
    Format profile : LC
    Codec ID : 40
    Duration : 4mn 23s
    Duration_LastFrame : 25ms
    Bit rate mode : Constant
    Bit rate : 128 Kbps
    Channel(s) : 2 channels
    Channel(s)_Original : 1 channel
    Channel positions : Front: C
    Sampling rate : 44.1 KHz
    Compression mode : Lossy
    Stream size : 4.03 MiB (4%)
    Language : Russian
    Audio #2
    ID : 3
    Format : AAC
    Format/Info : Advanced Audio Codec
    Format profile : LC
    Codec ID : 40
    Duration : 4mn 24s
    Bit rate mode : Constant
    Bit rate : 60.0 Kbps
    Channel(s) : 2 channels
    Channel positions : Front: L R
    Sampling rate : 48.0 KHz
    Compression mode : Lossy
    Stream size : 1.89 MiB (2%)
    Language : English


    Udemy.com | Python Web Programming (2015) PCRec [H.264/720p-LQ] [RU/EN]
    Рейтинг →
     (голосов: 1, оценка 3/5, голосовать можно 1 раз )

    Другие торренты по теме:

  • Udemy | Функциональное программирование на Python 3 (2017) PCRec [H.264 / 720p-LQ]


    • Комментарии (0):

      Информация

      Информация

        Посетители, находящиеся в группе Гости, не могут оставлять комментарии в данной новости.

        ↓ Меню




        ↓ Опрос

        Вы добавили сайт в закладки?
        Да
        Нет


        Top 10 за месяц (Книги)